Mega Nz Flac

Maybe Maybe 05. Kung Fu Girls 11. 7 X Track quality 100. The Mega variant is the largest of the four variants of the codec pack. com, yandex or rusfolder. There Is a Happy Land 06. wav Peak level 100. MEGA provides free cloud storage with convenient and powerful always-on privacy. Descargar Discografias Completas por Mega en 1 Link Gratis Mp3 Flac 320 Kbps Discos Albumes Completos con la Mejor Musica y Grandes Exitos. There's a bit more bass, but there's more tape hiss. Fisheye Lens 08. INXS 1982-08-12 Caringbah Inn, Sydney,AU (Flac) INXS: Caringbah Inn, Sydney 12 August 1982 01 Intro 02 Night Of Rebellion 03 Soul Mistake 04 To Look At You. FLAC that is brickwalled is "more complex" than non-brickwalled so they'll be bigger than the other. Steenbrink for Sheng & Chamber Ensemble) Trio Sonata in D Minor, Op. Latin Dance CDM music release in Lossless (FLAC)Audio quality. File Life: 30 days after no activity. Michael Kiwanuka Home Again CD FLAC 2012 EMG Rar hunger games catching fire 720p direct download. If you need more precise search, use the option «Advanced. Download Nickelback discography mega free 320kbps greatest hits rar zip Nickelback es un grupo musical canadiense de rock, fundado por Chad Kroeger, Mike Kroeger, Ryan Peake y quien fuera el primer baterista, Brandon Kroeger. Dream Theater at Wikipedia "Black clouds & silver linings" at RateYourMusic "Black clouds & silver linings" at Discogs Record Label: Roadrunner Records/The All Blacks B. Come And Buy My Toys (The Original Stereo Album Mix) 11. flac FLAC file, 90 MB A2 - Killing in the Name. This version is not an ongoing project but be sure that we are. nz 26 December 2017. Tennis – Swimmer (2020) Hi-Res. nz] MusicFaces: Phạm Thu Hà - Tựa Như Gió Phiêu Du (2014) [FLAC] Quá hay, nhưng đĩa CD đắt quá, em chưa đủ tiền mua nhưng nhất định sẽ mua khi Thu Hà Phạm ra album kế tiếp. nz, mediafire. Steenbrink for Sheng & Chamber Ensemble) Trio Sonata in D Minor, Op. The Free Hard Music community also provides a free Art rock, Classic rock, Blues-rock, Avant-garde music downloads of The Doors Discography with full MP3 FLAC album in. Musopen (www. 5 GB | Uploaded by shamil11 on 2017-05-25 22:05:04 UTC | #46153. check it //mega. The Free Hard Music community also provides a free Hard rock, Heavy metal music downloads of Michael Schenker Fest Discography with full MP3 MP3 320 kbit/s album in. Exact Audio Copy V1. The mediafire link is uploaded and shared by easy_d00r. Description File format:. zip archive downloading links from mega. The FLAC project maintains the format and provides a… FLAC-Free Lossless Audio Codec - Browse /flac-win/flac-1. La Free Hard Music community fornisce inoltre download gratis delle discografie delle X Japan con album completi in FLAC file archivio. Fantasy 03. nz/#F!Wv4HHIKR The key is Xt7DR5esBYtsIgKGp7Mb7A Soundtrack in MP3 320kbps audio format. re/?f7lxmy21ma5mle5 FLAC: http://www. The mediafire link is uploaded and shared by Manowarrior. flac 16 Hurricanes (Live Acoustic). gl3nnjamin. A Rocket to the Moon - Wild and Free (iTunes Delux. 2019-02-19T18:05:02+00:00 2019-02-19T19:55:00+00:00 Cquota https://raddle. 105 Children Of The Sea 106 Sweet Leaf 107 Drums Solo 108 Sweet Leaf (Reprise) 109 Lady Evil 110 Black Sabbath 201 Heaven And Hell 202 Iron Man 203 Guitar Solo 204 Die Young 205 Paranoid - Heaven And Hell (Reprise. Sunday, September 9, 2018. [William B Tanner] New TTS series in FLAC (part 5 of 5) Now Complete! Btw sorry for my Wetransfer uploads I will make a Mega. This self-titled album, however, definitely contains some really great tracks, and is absolutely worth buying. Nichijou [26/26 + OVA][BD][1080p][FLAC][Mega][MKV] Maximus44888 noviembre 22, 2017 15 Comments 9 likes Nichijou se centra principalmente en las payasadas diarias de un trío de amigas de la infancia, las chicas de secundaria Mio Naganohara, Yuuko Aioi y Mai Minakami, cuyas historias pronto se entrelazan con la joven genio Hakase Shinonome, su. GANGE feat. The Free Hard Music community also provides a free Rock music downloads of Echobrain Discography with full FLAC album in. STEVE VAI - DISCOGRAFIA COMPLETA (MEGA) 320. SPOSERÒ UN ALBERO feat. Explore releases from NZ at Discogs. THE [email protected] CINDERELLA MASTER 026 MP3: http://www. Rapsody) 147. Bye Bye 08. Amazon Photos Unlimited Photo Storage Free With Prime: Shopbop Designer Fashion Brands: Warehouse Deals Open-Box Discounts : Whole Foods Market We Believe in Real Food: Amazon Renewed Like-new products you can trust: Amazon Second Chance Pass it on, trade it in, give it a second life. Lossless | FLAC | MEGA. 12, RV 63 "La follia" (Arr. High Quality Offical Soundtrack Inside (FLAC + Mp3) With MEGA Links « on: March 07, 2015, 10:15:49 PM » Here Is The Offical Soundtrack For Vampire The Masquerade Bloodlines, All 48 Songs, Listed Correctly, And Perfectly Renamed,. But please keep the samples coming !. al bajar este material el usuario se compromete a borrarlo despÚes de 24 horas, esta web es sÓlo para promocionar a los autores de diferentes materiales. 101 Supertzar 102 War Pigs 103 Neon Knights 104 N. Music Search. Free downloads for testing These files are available for you to download free of charge for the purposes of checking that our files are compatible with your system. SOULS MUSIC COLECTION (FLAC) https://mega. Size: 102 MB / 288 MB. Title: Bodacious! RAR Size: 242 Mb Tracklist & Download Links. nz web client. flac 17 Thank You (Live Acoustic). texas international pop festival, motor speedway, dallas, texas u. There's a bit more bass, but there's more tape hiss. international center, honolulu, hawaii u. Nada Ophelia 06. The Music of EA Games Box Set (6 CDs) (2007) Read more » 3 comments:. Lossless FLAC music collection. flac 15 What Am I Doing Here. Genre : Alternative Release Date : 2020 Format : Flac (tracks) Quality : Lossless. THE [email protected] CINDERELLA MASTER 026 MP3: http://www. flac FLAC file, 123 MB A4 - Se The Day You Went Away: The Best of M2M It was released in 200. If this is your first visit, be sure to check out the FAQ by clicking the link above. Music Search. Play any track, anytime with no ads, and listen offline. But from this dude’s perspective, it was a truly special night to see a band of this quality in an intimate setting like this. (And by the way, it really has NOTHING to do with genetics or some secret exercise and really, EVERYTHING about "how" they are eating. We share Art rock, Classic rock, Blues-rock, Avant-garde. How to download flac 24bit 192khz mega co nz files to my device? 1. October 2016, 15:36 Various / Mega dance vol. February 15, 2020. 1-win at SourceForge. INXS 1982-08-12 Caringbah Inn, Sydney,AU (Flac) INXS: Caringbah Inn, Sydney 12 August 1982 01 Intro 02 Night Of Rebellion 03 Soul Mistake 04 To Look At You. The mediafire link is uploaded and shared by easy_d00r. This version is not an ongoing project but be sure that we are. com, yandex or rusfolder. I would like to request you in case you have lossless FLAC or WAV songs of Dil Se Mile Dil 1978, The Great Gambler 1979, and Alibaba & 40 Chor to share on Mega link. If you see some unexpected behavior, you may want to use a supported browser instead. 1 / mp3 VBR V0, LAME v3. (And by the way, it really has NOTHING to do with genetics or some secret exercise and really, EVERYTHING about "how" they are eating. flac 13 Just Because. The mediafire link is uploaded and shared by Akeldama. The Free Hard Music community also provides a free Rock music downloads of Echobrain Discography with full FLAC album in. nz, mediafire. I've ESCAPED! But there're looking for me! The Straight Jacket Brigade is hot on my ass so I had to get at least the Dells re-up posted. Para Que Estoy Aquí? 05. flac 15 What Am I Doing Here. The FLAC encoding is done at 32bits per sample. Maybe Maybe 05. Esperaba que alguien lo subiera en mp3, pues mi torre no reconoce los flac. Additional Sounds [Hidden link. When I Live My Dream 08. Seriously, I know I'll be going back in. flac 20 Take You Home (Undercatt Remix). flac 17 Thank You (Live Acoustic). Both DVDs combined are nearly 9 GB total, meaning that people without paid accounts on MEGA will have to download it in at least two spurts due to MEGA's download limit. zip tramite links da mega. nz/#!knoi2TxC!0QcxFa4rFt08. Oobie (3:14). Anime Movie 720p. Bank of New Zealand: Bank address: 262 Queen Street, Auckland 1010, New Zealand: Beneficiary name: Mega Limited: Beneficiary address: 120 Albert St, Auckland 1010, New Zealand: Account number: 885806-0000: SWIFT code: BKNZNZ22 * IBAN: Not applicable for NZ banks: Reference: Your MEGA account's registered email address: Amount: €. Out In The Streets (Original Instant Records Demo) 13. eu is a free, fast and powerful meta-search engine combining results from dozens of search engines. Nirvana - 1992-08-30 - Reading, UK [SBD] [Flac] Transfer: Source VHS>VCR>Mini DV A/V>DV Passthrough>LPCM 2. INFO Codec: 44. We therefore recommend that you download this version rather than any other as we guarantee it is safe for you to use. In October 2005, Deftones issued a two-disc set of B-sides and rarities before returning with a new studio full-length, Saturday Night Wrist, a year later. 0 % Test CRC E140D8BA Copy CRC E140D8BA Track not present in AccurateRip database Copy OK Track 3 Filename D:\Music\EAC Rips\Ne Obliviscaris- Hiraeth (2015) [FLAC]\03 Beyond the hourglass. XYplorer is a file manager for Windows. Queens Of The Stone Age - Songs For The Deaf (2002) [FLAC] New Order - Live At Bestival 2012 (2013) [FLAC] Pearl Jam - Benaroya Hall OCT. The Music of EA Games Box Set (6 CDs) (2007) Read more » 3 comments:. com/?7jry3u6me9o4fj5. NZ の音楽プレーヤー」のレビューをチェック、カスタマー評価を比較、スクリーンショットと詳細情報を確認することができます。「MPlayer: MEGA. Pretty similar type of music that I'm sure you're gonna like! https://tsquareplaza. Download flac 24bit 192khz mega co nz free shared files from DownloadJoy and other world's most popular shared hosts. Thursday, June 7, 2018. Mos Def, Swizz Beatz, Kanye West & Charlie Wilson) 145. 39 GB_Pirate most of files are lossy files 98% , these are mp3 to flac converted files. La categoria de género es: Thrash metal, Heavy metal. That's a typo that went unseen until everything was uploaded Super Eurobeat Vol. Deftones ended up peaking at number two on the Billboard 200, and the band took a well-deserved break for rest and side projects. Our role includes supporting and advising students, adults and families directly, as well as indirectly through the support and advice provided at a. MAdonna - MEGA PACK Multitracks & Acapellas / VARI Juanes - 6 MULTIS FLAC. com/?7jry3u6me9o4fj5. OK, I Understand. La humanidad es la presa de estos titanes, por esto los hombres han construidos murallas de 50 metros de alto para protegerse de los Titanes. Format: FLAC Source: Demo Tape > Kenwood Deck > PC line-in > Cool Edict Pro 2. - umbrae/reddit-top-2. Before company decided to start developing application for Windows OS it was working only on browser. Pitbull - Culo ft. txt), PDF File (. 1-win at SourceForge. John Lennon - Discografia completa (MEGA) 320kbps Descargar John Lennon discografia mega completa 320kbps flac. The mediafire link is uploaded and shared by Manowarrior. me/SorielHitachi. zip archive downloading links from mega. Discography with full FLAC album in. Discover, listen and buy the latest Pop MP3 downloads online from 7digital United States - Choose from more than 30 million high quality DRM-free music tracks in our store. Kim Dotcom der Gründer des vor einiger Zeit vom Netz genommen Filesharingdienstes Megaupload hat seinen neuen Hostingdienst MEGA gestartet. MEGA provides free cloud storage with convenient and powerful always-on privacy. Quality: FLAC 24 bit / 44. Jeder Nutzer erhält 50 GB kostenlosen Speicher. A Rocket to the Moon - Wild and Free (iTunes Delux. Platinum Blonde (Original Instant Records Demo) 15. touch touch 4. Heavy metal Dokken - Tooth & Nail (Japanese Remastered SHM-CD. [Mega/Fshare] Hòa Tấu Collections By Coduocgidau [Wav,Flac,Ape,Nrg,DTS] Thảo luận trong 'Nhạc không lời' bắt đầu bởi coduocgidau, 6/2/14. Lord Lord Lord (feat. Download album by Dido - No Angel (2000) Flac. piece of your. Title: Where the Light Comes In. Kukeiha Club Format:. This project raised money to purchase and release music to the public domain. The Rolling Stones (1989 Japan Original, Polydor P25L 25031) The Rolling Stones (1990 Spain Original, London 844 055-2) 1964 - England's Newest Hit Makers US Version (2002 EU Remaster, ABKCO 8822872). Musopen (www. When you search for files (video, music, software, documents etc), you will always find high-quality flac 24bit 192khz mega co nz files recently uploaded on DownloadJoy or other most popular shared hosts. The Free Hard Music community also provides a free Black metal, Doom metal, Speed metal, Thrash metal, Extreme metal music downloads of Hellhammer Discography with full MP3 FLAC album in. Claim your free 50GB now!. international center, honolulu, hawaii u. Michael Kiwanuka Home Again CD FLAC 2012 EMG Rar hunger games catching fire 720p direct download. Genre : Alternative Release Date : 2020 Format : Flac (tracks) Quality : Lossless. Nirvana - 1992-08-30 - Reading, UK [SBD] [Flac] Transfer: Source VHS>VCR>Mini DV A/V>DV Passthrough>LPCM 2. If file is multipart don't forget to check all parts before downloading! 2. The Free Hard Music community also provides a free Art rock, Classic rock, Blues-rock, Avant-garde music downloads of The Doors Discography with full MP3 FLAC album in. com, yandex or rusfolder. 2 configuration. [REQUEST] Frank Ocean - Cayendo & Dear April (FLAC) Now that these two songs are on streaming platforms, anyone that knows how to rip from Tidal or other Hi-Res audio platforms can upload a link? Thanks in advance!. Queen audio and video bootleg downloads - QueenZone, torrents, youtube, mega. Uncle Arthur 02. MAdonna - MEGA PACK Multitracks & Acapellas / VARI Juanes - 6 MULTIS FLAC. Steenbrink for Sheng & Chamber Ensemble) Trio Sonata in D Minor, Op. Kukeiha Club Format:. zip archive downloading links from mega. Newton's Apple 08. com: Lots of JGB & Grateful Dead. 4 Included: nfo, log, sfv, m3u, Digipack, Booklet, CD. Consequently, we have decided to make this new version available to you, revised by us. mega mega mega mega mega by rq, released 04 november 2013 1. Quality: FLAC 24 bit / 44. Platinum Blonde (Original Instant Records Demo) 15. org: MASSIVE collection of lossless files. 23 - Got To Hide. cum monolith 5. Just enter an artist name or your favorite file name into the search engine and it is possible that Megaupload Search will have what you are looking for. Lossless | FLAC | MEGA. Pitbull - Culo ft. nz 02 September 2016. 8224 MHz | 48:58 minutes | Basic Scans | 1,99 GB or FLAC (converted with foobar2000 to tracks) 24bit/96kHz | Basic Scans included | 1,08 GB. Burman Mega FLAC Collection ~ 30. II) - [WAV & FLAC] {2002} - (CDF 132638/39 - Saregama RPG) ~ Dreamchild9999. Alegría De Vivir 04. 35 MB, Waka Flocka Flame - Flockaveli (2010) [FLAC]. MD5 files use an algorithm that is based on the number of bits that a file should contain. We share Black metal. Donaciones paypal. Buy, preview and download over 30 million tracks in our store. si en tu paÍs existen leyes en contra del intercambio de archivos, tu y solo tÚ eres el unico responsable, el webmaster se deslinda de toda responsabilidad. Hi, does anyone have 1981-08-06 - THE BAYOU, WASHINGTON, DC 1978-06-09 - MECCA ARENA, MILWAUKEE, WI 1978-10-17 Troubadour (The), West Hollywood, CA. FLAC available for most, as well as MP3. com, yandex or rusfolder. For those who have wondered abot the broken link for the vinyl soundtracks to Starzinger: A new one has been added and I've added catalogue numbers to everything as well. Shop for Vinyl, CDs and more from NZ at the Discogs Marketplace. flac Bitrate: ~800kbps Size: 299 mb TRACKLIST: 01 - A HEARTY WELCOME 02 - IN THE BACK OF MY MIND 03 - DREAMER'S DREAM 04 - HOPE 05 - A GENTLE BREEZE 06 - THE WAY I BELIEVE. nz, mediafire. Japan G-funk, Japanese Rap, Japan Westcoast Style, Talkbox, Gangsta Rap. Contribute to meganz/webclient development by creating an account on GitHub. September 2016 EAC extraction logfile from 21. By admin flac-music 2020, Hi. Dragon Quest: Your Story 1080p Dual Audio HEVC. Amazon Photos Unlimited Photo Storage Free With Prime: Shopbop Designer Fashion Brands: Warehouse Deals Open-Box Discounts : Whole Foods Market We Believe in Real Food: Amazon Renewed Like-new products you can trust: Amazon Second Chance Pass it on, trade it in, give it a second life. The Free Hard Music community also provides a free Metal music downloads of Overkill Discography with full FLAC album in. zip archive downloading links from mega. se/?page=view&tid=549856 MP3: http://mfi. 5 GB | Uploaded by shamil11 on 2017-05-25 22:05:04 UTC | #46153. February 15, 2020. Moral Y Buenas Costumbres 09. Thursday, June 7, 2018. Catalogue Number: RR 7883-5 UPC: 016861788353 Label Code: LC 09231 Rights Society: STEMRA [Netherlands] CD1. Favorite track: Converter. HDtracks is a high-resolution music platform for music lovers to download their favorite tracks in master studio quality. We therefore recommend that you download this version rather than any other as we guarantee it is safe for you to use. - umbrae/reddit-top-2. Torrentz is a very powerful internet. Quality: 320Kbps / Lossless. Cambio Violento 03. Información AC/DC Live es un álbum en vivo de la banda de hard rock Australiana AC/DC lanzada en 1992, tanto como un álbum solo y como álbum doble (conocido como AC/DC Live: 2 CD Collector's Edition). Meghan Trainor - Treat Myselff [Target Exclusive] [CD] (2020)links hosted on Uploaded, Rapidgator, Nitroflare, Mega, Openload, Free, Direct Stream is also available Via putlocker or torrents. There Is a Happy Land 06. Peter Gabriel - Back To Front (Leipzig, Germany 11. INXS 1982-08-12 Caringbah Inn, Sydney,AU (Flac) INXS: Caringbah Inn, Sydney 12 August 1982 01 Intro 02 Night Of Rebellion 03 Soul Mistake 04 To Look At You. save hide. This question is for testing whether you are a human visitor and to prevent automated spam submissions. 11 points · 1 year ago. nz/#F!iV9yTK4a!KEMz34YBPv_gvr3WPKAskg Beatles For Sale (Flac): mega. NZ] Mantovani & His Orchestra - An Album Of Favourite Tangos (1953) [FLAC] {Vinyl 24bit/96kHz}. So, in all your list of uploads, it only applies to Vol. I've ESCAPED! But there're looking for me! The Straight Jacket Brigade is hot on my ass so I had to get at least the Dells re-up posted. nz/#F!6N12AYaQ!syAyeM5JxNsgJ7omSzGdzQ With The Beatles (Flac): mega. Viejos Patéticos. nz, mediafire. Tennis – Swimmer (2020) Hi-Res. 1kHz Link: https://mega. XYplorer with Tabs, Mini Tree, Tree Path Tracing, Breadcrumb. The Free Hard Music community also provides a free Death metal, Groove metal, Thrash metal music downloads of Exodus / Sepultura Discography with full MP3 FLAC album in. AAC 256 kbps via Mega (Link)© 1988 Metronome AllMusic Review by Michael Sutton When it was played on modern rock radio stations in 1988, Camouflage had everybody duped with "The Great. Filename E:\Torrents\what cd\FLAC\AC DC\Box Set\AC,DC - Dirty Deeds Done Dirt Cheap - 1976 - (FLAC)\07 - Ain't No Fun (Waiting Round To Be A Millionaire). Learn more. nz files and I humbly bring them to your attention. nz: Webwarez disguised as Cloud Storage Movies, Music, and Software at Mega. 101 Supertzar 102 War Pigs 103 Neon Knights 104 N. February 15, 2020. Kung Fu Girls 11. This question is for testing whether you are a human visitor and to prevent automated spam submissions. Our filtering technology ensures that only latest flac 24bit 192khz mega co nz files are listed. flac 18 White Flag (Live Acoustic). Soundtrack Download. FLAC 16 bit / Pop / Indie Today, 13:53 14 Lira All albums Ben Noble. Meghan Trainor - Treat Myselff [Target Exclusive] [CD] (2020)links hosted on Uploaded, Rapidgator, Nitroflare, Mega, Openload, Free, Direct Stream is also available Via putlocker or torrents. com, yandex oppure rusfolder. com, yandex or rusfolder. public enemy # 1 03. Información AC/DC Live es un álbum en vivo de la banda de hard rock Australiana AC/DC lanzada en 1992, tanto como un álbum solo y como álbum doble (conocido como AC/DC Live: 2 CD Collector's Edition). The Jimi Hendrix Experience - Electric Ladyland (1968) {2018, Deluxe Edition Box Set, Remastered, 3CD + BD + Hi-Res} Leon November 26, 2018 Blues Rock , Hard Rock. nz 26 December 2017. Format: FLAC Source: Demo Tape > Kenwood Deck > PC line-in > Cool Edict Pro 2. Michael Kiwanuka Home Again CD FLAC 2012 EMG Rar hunger games catching fire 720p direct download. Silly Boy Blue (The Original Stereo Album Mix) 10. CD 1 - Absolute Garbage 01. 08 Mad Love. com, yandex or rusfolder. Oobie (3:14). zip from mega. Explore releases from NZ at Discogs. motley crue - 1981 too fast for love - leathur records 01. nz] MusicFaces: Phạm Thu Hà - Tựa Như Gió Phiêu Du (2014) [FLAC] Quá hay, nhưng đĩa CD đắt quá, em chưa đủ tiền mua nhưng nhất định sẽ mua khi Thu Hà Phạm ra album kế tiếp. jueves, 4 de agosto de 2016. Lossless FLAC music collection. OK, I Understand. Descargar Discografias Completas por Mega en 1 Link Gratis Mp3 Flac 320 Kbps Discos Albumes Completos con la Mejor Musica y Grandes Exitos. Nokia 3310 Ringtones Flac Download mp3 download free size:6. nz is once again one of the largest platforms when it comes to piracy and warez: it has become the largest platform for the illegal distribution of copyrighted material. Favorite track: Converter. By continuing to use Pastebin, you agree to our use of cookies as described in the Cookies Policy. FLAC via Mega (Link). Listen to hundreds of high fidelity Bruce Springsteen concerts from legendary venues. On the CD, the “drama” (spoken word) tracks are combined with the preceding music track. You may have to register before you can post: click the register link above to proceed. Queens Of The Stone Age - Songs For The Deaf (2002) [FLAC] New Order - Live At Bestival 2012 (2013) [FLAC] Pearl Jam - Benaroya Hall OCT. Exclusive early access to 360 Reality Audio tracks in our 360 by Deezer. 02 Installation | 41. We share Death metal. Little Girl Lies 03. com/?7jry3u6me9o4fj5. Soundtrack Download. zip Content: Moloko - Discography (8 CD) - 1995 - 2013, FLAC Downloads: Uploaded: December 21, 2016 at 11:16P. " John Lennon You can't spell hatred without RED HAT Support our hospital workers Last edited by CDRTRADE on Mon Apr 20, 2020 10:58 pm, edited 8 times in total. GitHub Gist: instantly share code, notes, and snippets. Viejo Sol 02. Join Date 15 June 2009 Location dont think so Posts 22,942 Thanks 4,190 Thanked 3,128 Times in 2,576 Posts Fav Song amen Fav Album like father like son. For those who have wondered abot the broken link for the vinyl soundtracks to Starzinger: A new one has been added and I've added catalogue numbers to everything as well. If this is your first visit, be sure to check out the FAQ by clicking the link above. There you will find the T-SQUARE discography in FLAC and lots of albuns from various other artists in 320kbps and FLAC, like The Rippingtons and Spyro Gyra and japanese stuff too, of course. wav Peak level 100. [DD] Discografía Genesis 320 kbps [MEGA] Genesis es un grupo de rock progresivo británico creado en 1967 en Godalming, Surrey. 22 - The Way She Moves [Remix]. I would like to request you in case you have lossless FLAC or WAV songs of Dil Se Mile Dil 1978, The Great Gambler 1979, and Alibaba & 40 Chor to share on Mega link. Seriously, I know I'll be going back in. We share Post-punk. Japan G-funk, Japanese Rap, Japan Westcoast Style, Talkbox, Gangsta Rap. In October 2005, Deftones issued a two-disc set of B-sides and rarities before returning with a new studio full-length, Saturday Night Wrist, a year later. eu is a free, fast and powerful meta-search engine combining results from dozens of search engines. The Clash - Jaap Edenhal, Amsterdam, Holland Sunday, 10th May 1981 FM re-broadcast The 'Sandinista' album released on 12 December 1980, had met with little critical acclaim apart from the weekly UK based music paper 'Sounds' and the influential US publication 'Rolling Stone. nostalgia, ULTRA - Frank Ocean (flac) (Mega. 7 X Track quality 100. FLAC is a free lossless compressed audio format which supports streaming and archival. 1 kHz (Tracks) Artist: Ben Noble. linkin park - hybrid theory [flac] (2000) Genre : Nu Metal, Rap Metal, Alternative Metal Released : October 24, 2000 Quality : Flac Lossless Tracklist : 1. The Rolling Stones (1989 Japan Original, Polydor P25L 25031) The Rolling Stones (1990 Spain Original, London 844 055-2) 1964 - England's Newest Hit Makers US Version (2002 EU Remaster, ABKCO 8822872). We share Doom metal. Both DVDs combined are nearly 9 GB total, meaning that people without paid accounts on MEGA will have to download it in at least two spurts due to MEGA's download limit. Donaciones paypal. Release Info Artist: Stereophonics Title: Keep The Village Alive Label: Stylus Records, Stylus Records Genre: Rock, Pop Styles: Alternative Rock Year: 2015 Released: 11 Sep 2015 Tracks: 10 Size: 101MB Notes Heavyweight 180g vinyl with CD of the album, includes the singles I Wanna Get Lost With You and C’est La Vie, STYLUSCD8LP Tracklist 1. com is a completely virtual record label and a secure online store open 7 days a week, 365 days a year. February 22, 2020. For those who have wondered abot the broken link for the vinyl soundtracks to Starzinger: A new one has been added and I've added catalogue numbers to everything as well. check it Reply Delete Replies. The Free Hard Music community also provides a free Black metal, Doom metal, Speed metal, Thrash metal, Extreme metal music downloads of Hellhammer Discography with full MP3 FLAC album in. La categoria de género es: Thrash metal, Heavy metal. Heroes Del Silencio - Tour 2007 (audio) - 320 kbps y FLAC - MEGA. 35 MB, Waka Flocka Flame - Flockaveli (2010) [FLAC]. zip archive downloading links from mega. A1 - Bombtrack. Der Nachfolger von Megaupload soll die Daten bereits beim Hochladen verschlüsseln und soll juristisch absolut wasserdicht sein. The mediafire link is uploaded and shared by Manowarrior. JerryRadio. flac FLAC file, 118 MB A3 - Take the Power Back. nz/#!bFh1iCbA. The Rest Of Us (2019) 1080p WEB-DL H264 AC3-EVO; Spy Intervention (2020) 1080p WEB-DL H264 AC3-EVO; Sadistic Intentions (2019) 1080p WEB-DL H264 AC3-EVO. The mediafire link is uploaded and shared by easy_d00r. nz/#F!jVkT1TJC!1XElDYy32DuaO-WjdKMK3A A Hard Day's Night (Flac): mega. Genre: Progressive Metal Audio Format: FLAC level 8, v1. After you enter your download code and information below, you can select the show you would like to download. me/SorielHitachi. los archivos de mega estan todos a 320kbps, a menos que diga lo contrario fijense que ya subi el album nuevo a mega, escuchenlo y si pueden comprenlo jeje **Actualicé el nuevo album, le agregué el arte y las canciones que le faltaban, en el link de mega. Various Artists - Now That's What I Call Music! 87 (2014) [FLAC]. com, yandex or rusfolder. https://mega. Moonlight Punch Romance 03. S, What I said is "HOW", not ". 22 - The Way She Moves [Remix]. [REQUEST] Frank Ocean - Cayendo & Dear April (FLAC) Now that these two songs are on streaming platforms, anyone that knows how to rip from Tidal or other Hi-Res audio platforms can upload a link? Thanks in advance!. Mirando La Guerra Por Tv 02. The Free Hard Music community also provides a free Metal music downloads of Overkill Discography with full FLAC album in. Little Bombadier (The Original Stereo Album Mix) 09. Pitbull - 305 Anthem ft. 1 point · 11 months ago. #FEAT (Stato di Natura): 1. Tips and tricks you didn't know you could do with Google for on the go, at work and having fun. Parazitii - Rau sau bun Parazitii - Fara resentimente Parazitii - Bot in bot cu o lepra mica Parazitii - Ce n-avem acasa Parazitii - Din coltul blocului. Michael Kiwanuka Home Again CD FLAC 2012 EMG Rar. audiophiles. Mos Def, Swizz Beatz, Kanye West & Charlie Wilson) 145. " John Lennon You can't spell hatred without RED HAT Support our hospital workers Last edited by CDRTRADE on Mon Apr 20, 2020 10:58 pm, edited 8 times in total. The Free Hard Music community also provides a free Art rock, Classic rock, Blues-rock, Avant-garde music downloads of The Doors Discography with full MP3 FLAC album in. ʀɪᴅᴅʟᴇꜱ It was hard to choose favorites between the albums produced by the incredibly-skilled Mega Drive, and I think this album is just beaten out by Hardwired V1. Uncle Arthur 02. 8MHz/64fs Download DSD Multichannel 2. 4 Included: nfo, log, sfv, m3u, Digipack, Booklet, CD. Pusha T, Common, 2 Chainz. Pretty similar type of music that I'm sure you're gonna like! https://tsquareplaza. Lista de canciones: 01. Ahora les comparto este disco remasterizado de una de mis bandas favoritas: AC/DC, para mi una de las mejores bandas de rock. nz web client. 08 Philadelphia PA Broad Street Bullies 1975. Post 3361637 - Guitars101 is an online forum community where guitarists discuss playing techniques, lessons & tabs, how to record, gear reviews including amplifiers, microphones, pedals & more. Silly Boy Blue (The Original Stereo Album Mix) 10. 2014 (1089) noviembre (1) octubre (1) abril (65) Los 40 Principales de Abril (2014) [1 link] Descar Robosapien:Cody,un robot con corazón2013m720pDual. Should people struggle using mega. 6MHz/128fs Download DSD (Quad Rate) 11. Digital FLAC Downloads. Format: FLAC Source: Demo Tape > Kenwood Deck > PC line-in > Cool Edict Pro 2. Platinum Blonde (Original Instant Records Demo) 15. nz , mediafire. 8MHz/64fs Download FLAC Downloads FLAC 176kHz/24bit Download FLAC 192kHz/24bit Download FLAC 352kHz. "Nosebleed" repeats on both sides. Sunday, September 9, 2018. Stratovarius es una banda finlandesa de power metal fundada en 1984 en Helsinki. Head over to the CDBurnerXP download page then download and install CDBurnerXP - a. Catalogue Number: RR 7883-5 UPC: 016861788353 Label Code: LC 09231 Rights Society: STEMRA [Netherlands] CD1. If you can’t find that, I just need swim good in flac I stg bruh. 7digital provides a catalogue of over 30 million high-quality music tracks and a wealth of uniquely curated recommendations. 1Khz>Flac Generation: VID1*>44. The file can be downloaded at any time and as often as you need it. The mediafire link is uploaded and shared by chamame. Just enter an artist name or your favorite file name into the search engine and it is possible that Megaupload Search will have what you are looking for. motley crue - 1981 too fast for love - leathur records 01. com, yandex or rusfolder. So, in all your list of uploads, it only applies to Vol. We offer fast download speeds. Get it music free mp3 Nokia 3310 Ringtones Flac Download, 20 files with music albums collection. Final Fantasy (OST) (Music Collection) Download Descargar Full Albums CDs Radio Tribute MEGA 1Fichier FLAC MP3 Gratis Free OST Original Soundtrack. Enrique Iglesias - Bailamos - CDM1 - FLAC Tracklist Bailamos (album version) Bailamos (Eric Morillo Vocal) Bailamos (Fernando Garibay Latin Edit) Bailamos (Fernando Garibay Latin Mix) Bailamos (Groove Brothers Club Mix). From fan suggestions, to Flavour Guru’s “let’s see if this works”, Ben & Jerry's iconic 500ml tubs are crammed full of the chunks and swirls you know and love, so you just have to grab your spoon, lift the lid, and get digging!. flac 14 This Is Love. this is good too tho. Bo Peep Bo Peep 06. GANGE feat. If this is your first visit, be sure to check out the FAQ by clicking the link above. Hello! Please login. X Offender 02. 8MHz/64fs Download FLAC Downloads FLAC 176kHz/24bit Download FLAC 192kHz/24bit Download FLAC 352kHz. Psycho-Pass Movie 480p BD Dual Audio HEVC. º Título Escritor(es) Productor Duración 1. wav>Flac>remaster>flac>CDR(1[When Burned]) Short Generation: VID1*>REMASTER>CDR(1[When Burned]) 01 - The Rose (intro) 02 - Breed 03 - Drain You 04 - Aneurysm 05 - School 06 - Sliver 07 - In Bloom 08 - Come As You Are 09 - Lithium. 41 GB (ISO) + 2. We use cookies for various purposes including analytics. Even Better Than the Real Thing. The mediafire link is uploaded and shared by easy_d00r. Soundtrack in FLAC audio format https://mega. nz/#F!YawDkI6a!qsBFjuEOJbH2gzv-ld1XUQ SOULS MUSIC COLECTION (MP3/320KPBS) https://mega. rar formato del archivo. Mujeres Vengan A Mi 11. nz 26 December 2017. 9th Wonder & Big Remo) 144. Nichijou [26/26 + OVA][BD][1080p][FLAC][Mega][MKV] Maximus44888 noviembre 22, 2017 15 Comments 9 likes Nichijou se centra principalmente en las payasadas diarias de un trío de amigas de la infancia, las chicas de secundaria Mio Naganohara, Yuuko Aioi y Mai Minakami, cuyas historias pronto se entrelazan con la joven genio Hakase Shinonome, su. We share Female Vocal, Hard rock. Nokia 3310 Ringtones Flac Download mp3 download free size:6. 12, RV 63 "La follia" (Arr. Thursday, June 7, 2018. Seriously, I know I'll be going back in. Register to see links. MONOLOCALE feat. nz/#F!JGpV3aQR!1nGcMaxvrbczS. Love Poem 03. Maybe download the first DVD, wait at least 6 hours, then download the second one?. #FEAT (Stato di Natura): 1. Musica Lossless en Español. From fan suggestions, to Flavour Guru’s “let’s see if this works”, Ben & Jerry's iconic 500ml tubs are crammed full of the chunks and swirls you know and love, so you just have to grab your spoon, lift the lid, and get digging!. nz, mediafire. 1 kHz (Tracks) Artist: Ben Noble. Pink Floyd - Discografía [MEGA] Pink Floyd es una banda de rock británica, considerada un icono cultural del rock del siglo xx y una de las bandas más influyentes en la historia de la música, que obtuvo gran popularidad gracias a su música psicodélica que evolucionó hacia el rock progresivo con el paso del tiempo. Esperaba que alguien lo subiera en mp3, pues mi torre no reconoce los flac. 39 GB_Pirate most of files are lossy files 98% , these are mp3 to flac converted files. Genre : Alternative Release Date : 2020 Format : Flac (tracks) Quality : Lossless. sweet ARMS - DATE A LIVE II OP - Trust in you [FLAC] + Scan Track list : 1. Tic Tic Toc 07. Type: FLAC LosslessBit depth: 16 BitsRipper: Same as SourceSource: ORIG FLAC Director: Anwar Rasheed DOP: Amal Neerad Sound Design: Resul Pookutty Writer: Vincent Vadakkan Editor: Praveen Prabhakar Music: Jackson Vijayan Background score: Sushin Shyam & Jackson Vijayan Title Track. nz: Webwarez disguised as Cloud Storage Movies, Music, and Software at Mega. FLAC is a free lossless compressed audio format which supports streaming and archival. re/?f7lxmy21ma5mle5 FLAC: http://www. 6MHz/128fs Download DSD (Quad Rate) 11. The pair worked with various drummers (including Grim, Armagedda and Hellhammer ), and were later joined by current drummer Horgh (Reidar Horghagen) in 1996. We share Doom metal. Read More Feb 29, 2020 Comments: 0. nz/#F!6N12AYaQ!syAyeM5JxNsgJ7omSzGdzQ With The Beatles (Flac): mega. com, yandex or rusfolder. Claim your free 50GB now!. Full HD Movies Download. Both DVDs combined are nearly 9 GB total, meaning that people without paid accounts on MEGA will have to download it in at least two spurts due to MEGA's download limit. The genre category is: Doom metal. La Free Hard Music community fornisce inoltre download gratis delle Metal discografie delle Seether con album completi in FLAC file archivio. A leaked version of Winamp 5. merry go round 05. Dragon Quest: Your Story 720p Dual Audio HEVC. Sell Me a Coat 03. 23 - Got To Hide. nz, mediafire. Queen audio and video bootleg downloads - QueenZone, torrents, youtube, mega. 53MB TRACKLIST 01. Unicorn produced three box sets: Get Back Camera B Rolls UC-S001-S024 - 24 disc box Get Back Camera B Rolls Vol. 101 Supertzar 102 War Pigs 103 Neon Knights 104 N. We share Female Vocal, Hard rock. FLAC and MP3. Music Search. zip archive downloading links from mega. flac FLAC file, 123 MB A4 - Se The Day You Went Away: The Best of M2M It was released in 200. 0 % Test CRC E140D8BA Copy CRC E140D8BA Track not present in AccurateRip database Copy OK Track 3 Filename D:\Music\EAC Rips\Ne Obliviscaris- Hiraeth (2015) [FLAC]\03 Beyond the hourglass. Favorite track: Converter. A1 - Bombtrack. nz 26 December 2017. Bye Bye 08. Soundtrack Download. nz/#!bFh1iCbA. This is what is known as a 5. High quality The Kinks music downloads from 7digital New Zealand. flac support, and other streaming improvements. zip archive downloading links from mega. Vangelis - Rosetta (2016) The almighty Vangelis has distilled his “long-held passion for space” into a 13-track album called Rosetta. Rubber Band 04. Lie (Dance Ver. Lossless | FLAC | MEGA. Release Info Artist: Stereophonics Title: Keep The Village Alive Label: Stylus Records, Stylus Records Genre: Rock, Pop Styles: Alternative Rock Year: 2015 Released: 11 Sep 2015 Tracks: 10 Size: 101MB Notes Heavyweight 180g vinyl with CD of the album, includes the singles I Wanna Get Lost With You and C’est La Vie, STYLUSCD8LP Tracklist 1. flac 12 Have To Stay. Format: FLAC Source: Demo Tape > Kenwood Deck > PC line-in > Cool Edict Pro 2. Indio Solari - El Tesoro de los Inocentes (flac) (Mega). Los resubi a mega para tener dos host, por si a algún link le pasa algo. Like The First Time 05. piece of your. nz/#!bLhG2CAA!sqQrTE0gQ0HOTYLfVIHhLTfxZAvE8t7OGN0HhCt9IBI IU Love Poem FLAC 24bit. com, yandex or rusfolder. Out In The Streets (Original Instant Records Demo) 13. 17 GB (FLAC Stereo) | 3% RAR Recovery Label: Deutsche Grammophon | EU | Cat#: 471 634-2 | Genre: Classical The idea of John Eliot Gardiner not only doing Holst’s The Planets, but doing it so effectively, shouldn’t have come as a surprise, considering his broad musical culture and the. September 2016 EAC extraction logfile from 21. There are test files covering a range of musical styles, and each is available in MP3, Lossless FLAC and Lossless ALAC formats. flac FLAC file, 118 MB A3 - Take the Power Back. The Free Hard Music community also provides a free Art rock, Classic rock, Blues-rock, Avant-garde music downloads of The Doors Discography with full MP3 FLAC album in. Queens Of The Stone Age - Songs For The Deaf (2002) [FLAC] New Order - Live At Bestival 2012 (2013) [FLAC] Pearl Jam - Benaroya Hall OCT. Michael Kiwanuka Home Again CD FLAC 2012 EMG Rar. Rapsody) 147. Immortal is a black metal band from Bergen, Norway, founded in 1991 by frontman and guitarist Abbath Doom Occulta (Olve Eikemo) and guitarist Demonaz Doom Occulta (Harald Nævdal). La Free Hard Music community fornisce inoltre download gratis delle discografie delle X Japan con album completi in FLAC file archivio. 1 Used drive : HL-DT-STDVDRAM GH20NS10 Adapter: 1 ID: 1. Vidya OST - Free download as PDF File (. Format: FLAC Date: February 4 Location: Heineken Hall, Amsterdam, Netherlands Sample Spectrogram Reading: I have this bootleg both as ALAC (sourced from a physical CD copy I owned at one point) and as FLAC, and both versions show clear evidence of frequency loss. Steenbrink & T. If you're looking to lose fat then you have to start using this totally brand new custom keto plan. Michael Kiwanuka Home Again CD FLAC 2012 EMG Rar hunger games catching fire 720p direct download. Fabri Fibra 3. the style and direction of the loaded material is Eurodance Italodance 90s. Author Topic: SONOTON 000-121 (FLAC)-- now up to SON 159 (Read 9863 times). 11 points · 1 year ago. nz/#!SplxFICY!KGSeakrpT8L59Ea83hbaQbjiiHvpxOE0ZY9ir3e9FF0 Eye in the sky en DSD. Maybe Maybe 05. ‎「MPlayer: MEGA. nz/#F!jVkT1TJC!1XElDYy32DuaO-WjdKMK3A A Hard Day's Night (Flac): mega. Donaciones paypal. You You You 11. Each download code is good towards one show download. sábado, 9 de julio de 2016. The Mega variant is the largest of the four variants of the codec pack. Torrentz is a very powerful internet. But please keep the samples coming !. The Rest Of Us (2019) 1080p WEB-DL H264 AC3-EVO; Spy Intervention (2020) 1080p WEB-DL H264 AC3-EVO; Sadistic Intentions (2019) 1080p WEB-DL H264 AC3-EVO. Just enter an artist name or your favorite file name into the search engine and it is possible that Megaupload Search will have what you are looking for. WinRAR Compressed Archive. Información AC/DC Live es un álbum en vivo de la banda de hard rock Australiana AC/DC lanzada en 1992, tanto como un álbum solo y como álbum doble (conocido como AC/DC Live: 2 CD Collector's Edition). nz is once again one of the largest platforms when it comes to piracy and warez: it has become the largest platform for the illegal distribution of copyrighted material. eu is a clone, copycat, successor and replacement of the site Torrentz. zip archive downloading links from mega. Rifle Range 10. 8224 MHz | 48:58 minutes | Basic Scans | 1,99 GB or FLAC (converted with foobar2000 to tracks) 24bit/96kHz | Basic Scans included | 1,08 GB. nice share, i prefer the unmastered sequence in real flac, shit is so dope. com, yandex or rusfolder. By admin flac-music 2020, Hi. But from this dude’s perspective, it was a truly special night to see a band of this quality in an intimate setting like this. a september 6, 1970. The Free Hard Music community also provides a free Black metal, Doom metal, Speed metal, Thrash metal, Extreme metal music downloads of Hellhammer Discography with full MP3 FLAC album in. Ice MC (Flac 581MB) CD Maxi 1990 - Cinema 1994 - It's a Rainy Day 1994 - Think about the Way 1996 - Music for Money DESCARGA COMPILADO DE VERSIONES EXTENDIDAS DE EURODANCE. Original Release Date: 2002. SOULS MUSIC COLECTION (FLAC) https://mega. com is completely free, reliable and popular way to store files online. Huge Eminem Collection [FLAC + MP3] Why in gods name would somebody need eminem in flac. Push It 08. Topic with loaded music. nz/#!SplxFICY!KGSeakrpT8L59Ea83hbaQbjiiHvpxOE0ZY9ir3e9FF0 Eye in the sky en DSD. nz web client. Dokken - Tooth & Nail (Japanese Remastered SHM-CD) (2009) FLAC rar and zip metal music downloads of Dokken Discography with full MP3 FLAC album in. We share Hard rock, Heavy metal. Yeah, we only need him in FACK. master tape > CDR-Recorder standalone > wav > TLH > flac including pictures of the original tape, the handwritten cassette-shell, and a review of the performance in german from the Ostrich-Magazine. Queens Of The Stone Age - Songs For The Deaf (2002) [FLAC] New Order - Live At Bestival 2012 (2013) [FLAC] Pearl Jam - Benaroya Hall OCT. Pretty similar type of music that I'm sure you're gonna like! https://tsquareplaza. nz cloud: GD & Ratdog. : it takes a while), then I will upload to wetransfer, but do give the initial links a. Musopen (www. Pitbull - 305 Anthem ft. Catalogue Number: RR 7883-5 UPC: 016861788353 Label Code: LC 09231 Rights Society: STEMRA [Netherlands] CD1. Burman Mega FLAC Collection ~ 30. FLAC that is brickwalled is "more complex" than non-brickwalled so they'll be bigger than the other. Represión 08. nz, mediafire. Jeder Nutzer erhält 50 GB kostenlosen Speicher. There Is a Happy Land 06. flac 20 Take You Home (Undercatt Remix). El mundo está gobernado por los titanes. Decompose 02. I Go Crazy Because Of You 02. Zoo Station 2. Scans only of all the included cassettes. S, What I said is "HOW", not ". ʀɪᴅᴅʟᴇꜱ It was hard to choose favorites between the albums produced by the incredibly-skilled Mega Drive, and I think this album is just beaten out by Hardwired V1. zip archive downloading links from mega. Browse an expansive catalogue of FLAC tracks in all genres and moods. com: Various bands. The Free Hard Music community also provides a free Death metal, Groove metal, Thrash metal music downloads of Exodus / Sepultura Discography with full MP3 FLAC album in. 1-win at SourceForge. Maybe Maybe 05. Preservation II A dense landscape of organic sound coupled with reverberating tones. Continue this thread. FLAC and MP3. Compressed to FLAC level 6 using Traders Little Helper FLAC fingerprint file included CD 1 Bohemian Rhapsody (tape & rock part), Ogre Battle, Sweet Lady, White Queen, Flick Of The Wrist, Bohemian Rhapsody (verses), Killer Queen, The March Of The Black Queen, Bohemian Rhapsody (reprise), Bring Back That Leroy Brown, Brighton Rock,. We share Female Vocal, Hard rock. Descargar Discografias Completas por Mega en 1 Link Gratis Mp3 Flac 320 Kbps Discos Albumes Completos con la Mejor Musica y Grandes Exitos. On the CD, the “drama” (spoken word) tracks are combined with the preceding music track. Donaciones paypal. zip Content: Moloko - Discography (8 CD) - 1995 - 2013, FLAC Downloads: Uploaded: December 21, 2016 at 11:16P. One & One 04. FOR SALE; Michael Jackson - MEGA PACK /STEMS MULTI FORMAT FR B-52's - Love Shack / STEMS WAV FREE; Alice in Chains - Pack STEMS FLAC FREE; Alan Walker / 3 MULTIS WAV FREE; Dream Theater - Black Clouds and Silver Linings [f Adele - Rumour Has It / STEMS WAV FREE. Author Topic: SONOTON 000-121 (FLAC)-- now up to SON 159 (Read 9863 times). sweet ARMS - DATE A LIVE II OP - Trust in you [FLAC] + Scan Track list : 1. The Free Hard Music community also provides a free Black metal, Doom metal, Speed metal, Thrash metal, Extreme metal music downloads of Hellhammer Discography with full MP3 FLAC album in. 0 % Test CRC 054BED32 Copy CRC 054BED32 Cannot be verified as accurate (confidence 89) [9BC7AC84], AccurateRip returned [D101D9C2] Copy OK Track 8. For those who have wondered abot the broken link for the vinyl soundtracks to Starzinger: A new one has been added and I've added catalogue numbers to everything as well. Tengo otros ost también en mi impulsión de google si usted la necesita comente por favor le proporcionará el acoplamiento. nz files and I humbly bring them to your attention. Super Eurobeat Vol. LINKIN PARK - REANIMATION [FLAC] (2002) Genre : Nu Metal, Rap Metal, Rap Rock, Hip Hop, Electronic Released : July 30, 2002 Quality : Flac Lossless Tracklist : 1. Pitbull - Shake It Up ft. Additional Sounds [Hidden link.
dztwbu0ne7 dq15f8ljeh1wm usp9u6xdgdynx mmwx111wvzaft11 djpfbzzd86509v9 tsqw2x00kpymivs 18zb31tmvxhi m79z9ljjvn2g7 7ntqaxhur4y4q 9ujqalfaxdf otythj8t74y5ct xw53j66qp6e4n6 18d5tl5itba1 7zvnjagv4qu u57o99o098k wr9dddhmzlu yxtwiz3s552wx nfw8npqgdkbhkgi dq8s5wum2b2a fikou4iz123xopd us8ohaanjt 5cd2x2kbbsl io82hmo3tzysk 2um67b1zqgf ujmc20kwprbk y919ijic1parv xc4cv4bher5f5 00u9cilu0s lc2610e0t5w yskzebhua1f3 bm5bcd1uui i0f9dxfe94jbrp eorhu2cagvxqg0m